#TITLE:The Dunes;
#SUBTITLE:;
#ARTIST:Balflare;
#TITLETRANSLIT:;
#SUBTITLETRANSLIT:;
#ARTISTTRANSLIT:;
#CREDIT:;
#BANNER:BN.png;
#BACKGROUND:BG.png;
#LYRICSPATH:;
#CDTITLE:CDTitle.gif;
#MUSIC:04-balflare-the_dunes.mp3;
#OFFSET:-1.365;
#SAMPLESTART:61.748;
#SAMPLELENGTH:12.000;
#SELECTABLE:YES;
#BPMS:0.000=190.000,689.000=95.000,705.000=190.000;
#STOPS:;
#BGCHANGES:;
// cache tags:
#FIRSTBEAT:0.000;
#LASTBEAT:741.000;
#SONGFILENAME:Songs/Music V.I.P ^_^/The Dunes/The Dunes.sm;
#HASMUSIC:1;
#HASBANNER:1;
#MUSICLENGTH:280.084;
// end cache tags

//---------------dance-single - Blank----------------
#NOTES:
     dance-single:
     Blank:
     Hard:
     13:
     1.000,1.000,1.000,0.511,1.000,2229.000,345.000,143.000,0.000,0.000:

1001
0100
0010
0100
1000
0001
0100
0010
0100
0001
0010
0100
0010
0001
1000
0001
,
0100
0010
0100
0001
1000
0010
0100
0001
1000
0001
0100
0010
1000
0100
0010
0100
,
1000
0001
0100
0010
0100
0001
0010
0100
0010
0001
1000
0010
1000
0001
0010
0001
,
1000
0010
1000
0001
0010
0001
1000
0100
0010
0001
0010
0100
1000
0001
0010
0100
,
0010
0001
1000
0100
1000
0010
0100
0001
0010
0001
1000
0010
1000
0100
0010
0100
,
1000
0001
1000
0010
0100
0010
1000
0001
0100
0001
1000
0100
0010
0100
1000
0010
,
0100
0010
1000
0100
0010
0100
1000
0001
0100
0010
0100
0001
0010
0100
1000
0010
,
0202
0000
0000
0303
2200
0000
0000
3300
0220
0000
0000
0330
0022
0000
0000
0033
,
1010
0001
0010
0100
1000
0010
0100
0010
1000
0100
0010
0100
1000
0001
0100
0001
,
1000
0100
1000
0001
0010
0001
1000
0100
1000
0001
0010
0001
1000
0100
0010
0100
,
1000
0001
0010
0100
0010
0001
1000
0001
0100
0010
0100
0001
0010
0100
1000
0001
,
1000
0100
0010
0100
1000
0001
0100
0010
0100
0001
0010
0100
1000
0010
0100
0010
,
1000
0100
0010
0001
0100
0010
1000
0100
0010
0001
1000
0010
0100
0001
0100
0010
,
1000
0100
1000
0001
0100
0001
0010
0100
1000
0001
0100
0001
0010
0100
1000
0010
,
0100
0001
0010
0100
1000
0001
0010
0100
0010
0001
1000
0010
0100
0010
1000
0001
,
2020
0000
0000
3030
2200
0000
0000
3300
0202
0000
0000
0303
2002
0000
0000
3003
,
0110
0000
1001
0000
1010
0001
0110
0000
0101
0000
1100
0000
1010
0100
1001
0000
,
1100
0000
1001
0000
0101
1000
0110
0000
1001
0000
0100
0000
0010
0001
0010
0000
,
0100
0000
1000
0000
0010
0100
0010
0000
1000
0000
0100
0000
1000
0001
1000
0000
,
0102
0000
0010
0003
1200
0010
1000
0300
0021
0000
0100
0030
2100
0001
0100
3000
,
0101
0000
1100
0000
0011
0100
1001
0000
1010
0000
0110
0000
0101
0010
1100
0000
,
0110
0000
1000
0000
0101
1000
0011
0000
1010
0000
0100
0000
0010
1000
0010
0000
,
0201
0000
1000
0000
0001
0010
0001
0300
2010
0000
0010
0000
0100
0001
0100
3000
,
0021
0000
1000
0000
0100
1000
0100
0030
2001
0100
0010
0100
0010
0001
0010
3001
,
0110
0000
1000
0000
0001
0010
0001
0010
1100
0000
0001
0000
1010
0001
0010
0000
,
0110
0000
1000
0000
0100
0010
0100
0010
1001
0000
0010
0000
1000
0001
1000
0000
,
0101
0000
0010
0000
0100
0001
1100
0001
0110
0000
1000
0000
0001
0100
0001
0000
,
1000
0000
0010
0000
0100
1000
0100
1000
0001
0000
0010
0000
1001
0100
0001
0000
,
1010
0000
0001
0000
0010
1000
0010
1000
0110
0000
0001
0000
1010
0100
0010
0000
,
0011
0000
1000
0000
0001
0100
0001
0100
0011
0000
0001
0000
1010
0100
1000
0000
,
0110
0000
0000
0000
0000
0000
0010
0000
0000
0000
0000
0000
0001
0000
0000
0000
0000
0000
1000
0000
0000
0100
0000
0000
0010
0000
0000
0000
0000
0000
1000
0000
0000
0000
0000
0000
0110
0000
0001
0000
1000
0000
0010
0000
0000
0000
0000
0000
,
1100
0000
0000
0000
0000
0000
1100
0000
1100
0010
0001
1000
0010
0100
0001
0010
,
1001
0010
0100
1000
0010
0100
1010
0001
0100
0010
1000
0100
0011
1000
0100
0010
,
1001
0100
0010
0100
1000
0001
0100
0001
1000
0010
1000
0001
0100
0001
0010
0100
,
0011
1000
0100
0010
0001
1000
0101
0010
0100
1000
0100
0010
1001
0100
0010
0100
,
0011
1000
0100
0010
0001
0100
0010
1000
0100
0010
0001
0010
0100
1000
0001
1000
,
0110
0001
0010
0100
0010
0001
1010
0100
0010
0001
1000
0010
1100
0001
0010
0100
,
1001
0010
0100
0010
0001
1000
0100
0010
1001
0100
0010
0100
1000
0001
0100
0010
,
1100
0001
0010
0100
0010
0001
1010
0100
0010
0100
1000
0001
1100
0010
0001
1000
,
0110
0001
1000
0001
0010
0001
1000
0010
1000
0100
0010
0001
1000
0100
0010
0100
,
1001
0010
0100
1000
0010
0100
0011
1000
0100
0010
0100
1000
0110
0001
0010
0100
,
1001
0010
0100
0010
0001
1000
0010
1000
0001
0010
0001
1000
0100
1000
0001
0010
,
1100
0010
0001
1000
0010
1100
0010
0001
1000
0010
1000
0001
0110
1000
0001
1000
,
0101
0010
0100
1000
0010
0100
0001
0010
0100
0010
0001
1000
0010
0100
0001
0100
,
0011
1000
0100
0010
0001
1000
0110
0001
0010
0100
0010
0001
1010
0100
0010
0001
,
1010
0100
0010
0100
1000
0001
0110
1000
0001
1000
0100
0010
1001
0100
0010
0001
,
1100
0010
0001
0100
0001
0010
0101
0010
0100
1000
0010
0100
0011
1000
0100
0010
,
1001
0100
0010
0100
1000
0001
0110
1000
0001
0100
0010
1000
0110
0001
0010
0001
,
1100
0001
0100
0010
1000
0010
0100
0001
0110
1000
0010
0100
0001
0100
0010
1000
,
0110
0000
0000
0000
0000
0000
0000
0000
0000
0000
0000
0000
0011
0000
0000
1000
0100
0010
0001
0000
0000
0000
0000
0000
,
0110
0001
1000
0010
1000
0001
0010
0100
1000
0010
0100
0010
1000
0100
0010
0001
,
1000
0100
1000
0010
0100
0001
0010
0001
1000
0010
0100
0001
0100
0010
1000
0100
,
1000
0001
0100
0001
0010
0100
1000
0001
0010
0001
1000
0010
1000
0100
0010
0001
,
1000
0010
0100
0001
0100
0010
0100
0001
0010
0100
1000
0010
0100
0001
0010
0100
,
1000
0001
0100
0001
1000
0100
0010
0001
1000
0010
1000
0100
0010
0100
1000
0001
,
0100
0010
0100
0001
1000
0001
0010
0100
0010
0001
0100
0010
0100
0001
0010
0100
,
0010
0001
1000
0010
0100
0001
0100
0010
1000
0100
0010
0001
0100
0001
0010
0100
,
2020
0000
0000
3030
0220
0000
0000
0330
2020
0000
0000
3030
2002
0000
0000
3003
,
0110
0000
1100
0000
1001
0010
0101
0000
0011
0000
1100
0000
1010
0001
0100
0000
,
1001
0000
0101
0000
0110
0001
1100
0000
1001
0000
0100
0000
0010
0100
0010
0000
,
1000
0000
0100
0000
0010
0001
0010
0000
0100
0000
1000
0000
0010
0100
0010
0000
,
1002
0000
0010
0003
0210
1000
0010
0300
2001
0000
0010
3000
0102
0010
0100
0003
,
1010
0000
0110
0000
0101
1000
0110
0000
1100
0000
0010
0000
1001
0010
1100
0000
,
0011
0000
1010
0000
0110
0001
1100
0000
1001
0000
0100
0000
0010
1000
0010
0000
,
0100
0000
0001
0000
0010
0100
0010
0000
1000
0000
0100
0000
0010
0001
0010
0000
,
0100
0000
1000
0010
0100
0001
0100
0010
1000
0100
1000
0001
1010
0100
0011
0100
,
1010
0000
0100
0000
0001
0010
0001
0010
1001
0000
0001
0000
1000
0100
1000
0000
,
0110
0000
1000
0000
0010
0100
0010
0100
1001
0000
0010
0000
0110
0001
0010
0000
,
1100
0000
0010
0000
0001
1000
0101
1000
0110
0000
0001
0000
1000
0010
1000
0000
,
0100
0000
0010
0000
0001
0100
0001
0100
0001
0000
0010
0000
0101
1000
0100
0000
,
1010
0000
0100
0000
0010
0001
0010
0001
1100
0000
0010
0000
0101
1000
0100
0000
,
1001
0000
0010
0000
1000
0010
1000
0010
0101
0000
1000
0000
0110
1000
0010
0000
,
1100
0010
0001
0100
0010
1000
0100
1000
0001
0100
0001
1000
0110
0001
0100
0010
,
1001
0000
0000
0000
0000
0000
1001
0000
1001
0100
0010
0100
1000
0001
0100
0001
,
0110
1000
0010
0100
0001
0010
1100
0001
0010
0100
1000
0001
1010
0100
0010
0001
,
0110
1000
0001
0100
0001
1000
0010
0100
0010
1000
0001
0100
0001
0010
0100
1000
,
0110
0001
1000
0010
1000
0100
0011
1000
0100
0010
0100
1000
0101
0010
0100
1000
,
0011
0100
1000
0010
0100
0001
0100
0010
1000
0100
0010
0001
1000
0010
1000
0001
,
1100
0010
0001
1000
0010
1000
0110
0001
0010
0100
0010
0001
0110
1000
0001
1000
,
0101
0010
0001
1000
0010
0100
0010
1000
0110
0001
1000
0010
1000
0100
0010
0001
,
0110
1000
0001
0010
0001
1000
0011
0100
1000
0010
0100
0010
1100
0010
0001
0010
,
1001
0100
0010
0001
1000
0010
1000
0001
0010
0100
1000
0001
0100
0001
1000
0100
,
0011
1000
0010
0100
0001
0100
0011
1000
0100
0010
0001
0010
1100
0001
0010
0100
,
1001
0010
0100
0010
0001
1000
0010
0100
0010
1000
0001
1000
0100
0010
0001
0100
,
1010
0100
0010
0001
1000
0001
1100
0010
0100
0001
0010
0001
0110
1000
0100
0010
,
1001
0010
0100
0010
0001
1000
0010
0100
0001
0100
0010
1000
0100
0010
0100
1000
,
0101
0010
0100
1000
0001
0100
0011
1000
0100
0010
0001
0010
1100
0001
0010
0100
,
1001
0010
0100
0010
0001
1000
0110
0001
1000
0010
0100
0010
1100
0010
0001
0100
,
1010
0001
0010
0100
1000
0010
1100
0010
0001
1000
0100
1000
0110
0001
0010
0100
,
0011
1000
0100
1000
0001
0100
0011
1000
0010
1000
0001
0010
1100
0001
0010
0100
,
2001
0000
0000
0000
0000
0000
3100
0000
0012
0000
0000
0000
0203
0000
0000
0300
,
1010
0000
0100
1000
0001
0000
0100
0000
1010
0000
0100
0000
1000
0000
0001
0000
,
1020
0000
0130
0001
0021
0000
0130
0100
,
1010
0000
0001
0000
0020
0000
0000
0030
2002
0000
0000
0000
0000
0000
0000
3003
,
1200
0000
0000
0000
0310
0000
1000
0000
0201
0000
0000
0000
2300
0000
0000
3000
,
0101
0000
0010
0001
0010
0000
0100
0000
1010
0000
0100
0000
0010
0000
1000
0000
,
0120
0000
0000
0000
0031
0000
0100
0000
0021
0000
0000
0030
0010
0000
0010
0000
,
1100
0000
0010
0000
0200
0000
0000
0300
0011
1000
0010
1000
0001
0100
0001
1000
,
0110
0000
0001
1000
0001
0000
0100
0000
0010
0000
1000
0000
0100
0000
0010
0000
,
1200
0000
0310
1000
0011
0100
1000
0001
,
2010
0000
0000
0000
3001
0000
0100
0000
1020
0000
0000
0000
0032
0000
0000
0003
,
0201
0000
0000
0000
0310
0000
1000
0000
0110
0001
0010
0100
1000
0010
1000
0100
,
0021
0000
0130
1000
0001
0100
0100
1000
,
1002
0000
0103
0010
1000
0010
0010
0001
,
2100
0000
0000
0000
3010
0000
0100
0000
1020
0000
0000
0000
0230
0000
0000
0300
,
0021
0000
0000
0030
2001
0000
3200
0300
1010
0001
0100
0010
0100
0001
0010
0100
,
1001
0000
0100
0100
0011
0000
1000
0000
,
1001
0000
0000
0001
0000
0000
0110
0001
1000
0010
1000
0100
,
0011
1000
0010
1100
0010
0001
0110
1000
0001
1100
0010
0100
,
0011
1000
0100
1010
0001
0110
1100
0010
0001
0110
1000
0100
,
1001
0010
0100
1010
0100
0010
0101
0010
0001
1100
0010
0001
,
0110
1000
0100
0011
1000
0110
1010
0001
0100
0011
1000
0100
,
0011
1000
0100
1010
0001
0010
1001
0100
0010
1100
0010
0001
,
1010
0100
0010
1001
0100
0011
0110
1000
0100
0011
0100
1000
,
0110
0001
0010
1100
0010
0001
1010
0100
1000
0011
0100
0010
,
1001
0100
0010
1001
0010
0100
0011
1000
0010
0101
0010
0100
,
1010
0001
0100
0010
0100
0001
0010
0100
0010
0001
1000
0001
0100
0010
0100
0001
,
0010
0100
0010
0001
0100
0010
0100
0001
0010
0100
1000
0010
0100
0010
1000
0000
,
0000
0000
0200
0000
0000
0000
1300
0010
0100
0001
0100
0010
1000
0100
0010
0100
,
1000
0001
0010
0100
0010
0001
0100
0010
1000
0100
0010
0001
1000
0010
1000
0001
,
0010
0001
0100
0010
1000
0100
1000
0010
0100
0001
0010
0001
1000
0010
1000
0001
,
0100
0001
1000
0100
0010
0001
0010
0100
1000
0001
1000
0100
0010
0001
0100
0010
,
2000
0000
3200
0000
,
0310
0001
1000
0010
1000
0001
0100
0010
1000
0010
0100
0001
0010
0100
1000
0010
0100
0010
1000
0100
0010
0001
0100
0010
,
2000
0000
3010
0002
0000
0000
0000
0000
,
0203
0000
0000
0000
0301
0000
0020
0000
0000
0000
0000
0000
0000
0000
0000
0030
,
0001
0100
0010
1000
0010
0100
0001
0010
0100
0010
0001
1000
0100
0010
0100
1000
,
0001
1000
0010
0100
0010
1000
0001
0010
0100
0010
0001
1000
0100
0010
0001
0100
,
0010
0100
0001
0010
0100
1000
0001
0100
0010
0100
0001
0010
0100
1000
0010
0100
0001
0010
0100
1000
0010
0100
0010
1000
,
0100
0010
0100
1000
0001
0100
0010
1000
0010
0100
0001
0010
0100
0010
0001
1000
0010
1000
0200
0000
0000
0000
0000
0000
,
0310
0100
0002
0000
0000
0000
1003
0010
0100
0010
1000
0100
0010
0100
1000
0001
,
0100
0010
1000
0100
0020
0000
0000
0000
0032
0000
0000
0000
0203
0000
0000
0300
,
1020
0000
0000
0230
0000
0000
0302
0000
,
0023
0000
0000
0130
1000
0001
0100
0010
,
0200
0000
0000
0000
0000
0300
0200
0000
0000
0000
0000
0000
2300
0000
0000
3000
,
2000
0000
0000
0000
0000
3100
0010
1000
,
0002
0000
0000
2003
0000
0000
3020
0000
,
0032
0000
0000
0203
0000
0000
0320
0000
,
0230
0000
0000
1300
0010
1000
0001
0100
,
0010
0100
0001
0010
0001
1000
0010
1000
0100
0010
0001
0100
0010
1000
0100
0010
,
0201
0000
0000
0320
0000
0000
0032
0000
,
0023
0000
0000
0130
1000
0001
0100
1000
,
0020
0000
0000
0000
0000
0030
0020
0000
0000
0000
0000
0000
0230
0000
0000
0300
,
0200
0000
0000
0000
0000
0310
1000
0010
,
0002
0000
0000
0203
0000
0000
0302
0000
,
2003
0000
0000
3020
0000
0000
0032
0000
,
0203
0000
0000
0000
0000
0300
0200
0000
0000
0000
0000
0300
0200
0000
0000
0000
,
0320
0000
0000
0000
0000
0000
0230
0000
0000
0000
0000
0300
0200
0000
0000
0300
,
2010
0000
0000
0000
3100
0000
0010
0000
0102
0000
0000
0000
2003
0000
0000
3000
,
0110
0000
0001
1000
0010
0000
0100
0000
1001
0000
0100
0000
1000
0000
0001
0000
,
0021
0000
0130
1000
0210
0000
1300
1000
,
0101
0000
0010
0000
2000
0000
0000
3000
0220
0000
0000
0000
0000
0000
0000
0330
,
1200
0000
0000
0000
0310
0000
1000
0000
0021
0000
0000
0000
0032
0000
0000
0003
,
1010
0000
0100
0001
0100
0000
0010
0000
0110
0000
1000
0000
0001
0000
1000
0000
,
2100
0000
3100
0010
0101
1000
0010
0100
,
0010
1000
0100
0010
0100
1000
0010
0100
0010
1000
0100
0010
0001
1000
0010
1000
,
0002
0000
0000
0003
0110
1000
0010
0100
0010
1000
0101
0010
0100
1000
0010
0100
,
0011
1000
0100
0010
1001
0010
0100
0010
0001
1000
0100
0010
0100
1000
0010
0100
,
0001
0010
0100
0010
1001
0100
0010
0100
1000
0001
1100
0010
0001
1000
0010
1000
,
0011
0100
1000
0010
1100
0001
0100
0010
1000
0001
0100
0001
1000
0010
1000
0001
,
0010
0001
1000
0100
0011
1000
0100
0010
0001
1000
0101
0010
0100
1000
0001
1000
,
0110
0001
1000
0010
1100
0010
0001
1000
0100
0010
0001
1000
0011
0100
1000
0010
,
0100
0001
1000
0100
1010
0001
0100
0010
1000
0100
0011
1000
0100
0010
0100
1000
,
0110
0001
1000
0001
0110
1000
0001
0100
0010
1000
0010
0100
0001
0010
0100
0010
,
0001
1000
0100
0010
1001
0100
0010
0100
1000
0001
1010
0100
0010
0001
1000
0010
,
1100
0001
0010
0100
1001
0010
0100
0010
0001
1000
0001
0100
0010
0100
0001
0010
,
0100
1000
0100
0010
1001
0100
0010
0100
0010
0001
1100
0010
0100
0001
0010
0001
,
1010
0100
0010
0001
1010
0100
0010
0100
1000
0001
0100
0010
1000
0010
0100
0001
,
0010
0100
1000
0001
1010
0100
0010
0001
1000
0100
0011
0100
1000
0001
1000
0010
,
0101
0010
0100
1000
0011
0100
1000
0010
0100
0010
1100
0001
0100
0010
1000
0001
,
0110
1000
0001
0010
1100
0001
0010
0100
0010
0001
0110
1000
0001
1000
0010
0100
,
1001
0010
0100
0010
1001
0100
0010
0100
0001
0010
1100
0001
0100
0010
1000
0100
,
0011
1000
0100
0010
2001
0000
0000
3200
0000
0000
0320
0030
2002
0000
0000
0000
,
0000
0000
0000
3003
0002
0000
0000
0203
0000
0000
0320
0030
0202
0000
0000
0000
,
0000
0000
0000
0303
0020
0000
0000
2030
0000
0000
3200
0000
0302
0000
0000
0000
,
0203
0000
0000
0000
0320
0000
0000
2030
0000
0000
3002
0003
2200
0000
0000
0000
,
3300
0000
0010
0100
1000
0100
0010
0001
1100
0000
0010
0000
0001
0000
0100
0000
0010
0000
0100
0000
0011
0000
1000
0000
0100
0000
0010
0000
0001
0000
0100
0000
,
0011
1000
0100
0010
1001
0100
0010
0100
1000
0001
0100
0001
1000
0010
1000
0100
,
0010
0001
0010
0100
1001
0010
0100
0010
0001
1000
0011
0100
1000
0010
0100
0001
,
1010
0100
0010
0001
1100
0010
0100
1000
0001
0100
0010
1000
0010
0100
0010
1000
,
0100
1000
0001
0100
0011
0100
1000
0010
0100
0001
0110
1000
0001
0010
0100
1000
,
0110
0001
0010
0001
1100
0010
0001
1000
0010
1000
0100
0010
1001
0010
0100
0010
,
0001
1000
0010
1000
0101
0010
0100
1000
0001
1000
0110
0001
1000
0100
1000
0001
,
1100
0010
0100
0001
0110
1000
0001
0100
0010
1000
0101
0010
0100
1000
0001
1000
,
0101
0010
0100
1000
0110
0001
1000
0010
1000
0100
0010
0001
0110
1000
0010
0100
,
0001
0100
0010
1000
0110
0000
0000
0000
0000
0000
0000
0000
0000
0000
0000
0000
;
